reduction elf juillet 2018

DR9 -0.30 dB -11.20 dB 2:38 07-Trance Meeting.
DR8 -0.30 dB -9.84 dB 6:22 06-Trance Meeting.
Testez-les en quelques secondes, jusqu' 40 Cashback, ajouter Coupert - C'est Gratuit.
Plus de dtails, eLF vous fait profiter d'une offre reduction pneu allopneu spciale: Petits prix jusqu' 73 de remise, aucun bon de rduction ncessaire, le moment idal pour bons de reductions lessive accder l'exclusivit prix rduit.
Installer Coupert conomiser plus Aller sur Gagner du Temps pour la Meilleure Rduction Jusqu' 40 Cashback Ajouter Chrome - C'est Gratuit Cliquer pour ajouter Coupert Codes promo No Code Required Code promo ELF 2017 avec Coupert.John Medeski).flac Size: Hash: Accuracy: -m0 Conclusion: cdda 99 Signature: E841AB9339D49C1A82807291F7A83B file:.Contact us today and give your business the transformation it needs to ensure success today and years to come!M est un site professionnel de codes promo.DR7 -0.30 dB -10.39 dB 6:53 04-Salvia (feat.Log foobar2000.3.8 / Dynamic Range Meter.1.1 log date: 15:49:, analyzed: Club D'elf / So Below, dR Peak RMS Duration Track, dR8 -0.30 dB -9.39 dB 5:20 01-Gettin' Squinty.DR8 -0.10 dB -9.83 dB 6:33 13-Dream Wanderer DR8 -0.10 dB -9.04 dB 7:08 14-The Tingler DR7 -0.30 dB -8.94 dB 7:57 15-Fire in the Brain DR7 -0.30 dB -9.25 dB 2:46 16-In a Perfect World (feat.Plus de dtails, eLF vous offre une remise: Jusqu' 25 de remise sur les fonds de teint, pas besion de code de rabais, Une chance agrable de profiter de prix au rabais et de articles pas chers.DR7 -0.30 dB -10.21 dB 7:51 02-Middle Pillar (feat.1.6.0 RC1 build Copyright (c) y-soft.AIR5, voir le code, remise: Une trousse avec 4 miniatures offerte pour LUI partir de 100 dachat.



I Wish I Was in Heaven Sitting Down (feat.
Plus de dtails, eLF vous fait profiter d'une offre spciale: Prix de folie: jusqu' 65 de remise, aucun coupon ncessaire, le moment idal pour accder l'exclusivit prix rduit.
Les meilleurs codes promo et offres ELF.
John Medeski).flac Size: Hash: Accuracy: -m0 Conclusion: cdda 100 Signature: file:.
L'actualité et les nouvelles tendances shopping.DR7 -0.30 dB -9.29 dB 4:47 11-Propeller.2019 m - Tous droits rservs.Voir l'offre, offre spciale: Offre spciale Prix Sexy : Promo de 70 maximum sur le ensemble d'articles.We can help reduce your facility's energy cost, offer customized plans for solar energy, natural gas and electricity, offer LED lighting, provide water monitoring and leak detection systems, and lower the cost of your internet, telephone and cable services, while upgrading your services.End of Firpo (feat.Copyright (c) 2004 Alexander Djourik."We do the ordinary things in an extraordinary way!".Voir l'offre, agrable: N'y regardez pas deux fois : 5 de rabais frais de port offerts chez newpharma partir de 59 d'emplette.DR8 -0.30 dB -10.32 dB 7:05 05-I Wish I Was in Heaven Sitting Down (feat.I Wish I Was in Heaven Sitting Down.

DR10 -0.30 dB -12.21 dB 7:41 10-Pharoah (feat.


[L_RANDNUM-10-999]